منتديات احلى شباب
السلام عليكم ورحمه الله وبركاته
شرفت منتداك ونورته بطلتك عليه نتمنى ان يعجبك منتدانا المتواضع وتلاقى فيه اللى انت محتاجه ان شاء الله كما يسعدنا ان تكون واحد منا لو سجلت معانا
دمت فى امان الله
....الاداره....


فى هذا المنتدى نحن عقول شابه نتطلع لمواكبه عصر التقدم بكل السبل المتاحه فنعمل جاهدين على ان نوفر لزوار واعضاء منتدانا مايحتاجونه باذن الله ونحاول جاهدين للقيام بالمزيد من اجل تطوير منتديات احلى شباب لتكون من افضل وارقى المنتديات ان شاء الله
 
الرئيسيةالبوابةاليوميةمكتبة الصورس .و .جبحـثالأعضاءالمجموعاتالتسجيلدخول

شاطر | 
 

 بانفراد وتميز تام عندنا وبس فيلم الاكشن 2010 الرهيب The Expendables (2010) dvd

استعرض الموضوع السابق استعرض الموضوع التالي اذهب الى الأسفل 
كاتب الموضوعرسالة
Admin
Admin
avatar

عدد المساهمات : 116
نقاط : 354
تاريخ التسجيل : 28/06/2010
العمر : 23
الموقع : egypt

مُساهمةموضوع: بانفراد وتميز تام عندنا وبس فيلم الاكشن 2010 الرهيب The Expendables (2010) dvd   الخميس سبتمبر 02, 2010 8:58 am

السلام عليكم

لعشاق افلام الاكشن والاثاره عندنا وبس نتميز بان نفدم اروع وافضل الافلام الاكشن الرهيبه 2010 والتى حازت على جوايز عالميه

[ندعوك للتسجيل في المنتدى أو التعريف بنفسك لمعاينة هذا الرابط]




Format/Info : Audio Video Interleave
Format profile : OpenDML
File size : 1.37 GiB
Duration : 1h 38mn
Overall bit rate : 1 982 Kbps
Writing application : VirtualDubMod 1.5.10.2 (build 2542/release)
Writing library : VirtualDubMod build 2542/release
Original source form : MAX TORRENTZ
Copyright : SIGISMUNT

Video
ID : 0
Format : MPEG-4 Visual
Format profile : AdvancedSimple@L5
Format settings, BVOP : Yes
Format settings, QPel : No
Format settings, GMC : No warppoints
Format settings, Matrix : Custom
Codec ID : XVID
Codec ID/Hint : XviD
Duration : 1h 38mn
Bit rate : 1 592 Kbps
Width : 720 pixels
Height : 400 pixels
Display aspect ratio : 16:9
Frame rate : 25.000 fps
Resolution : 24 bits
Colorimetry : 4:2:0
Scan type : Progressive
Bits/(Pixel*Frame) : 0.221
Stream size : 1.10 GiB (80%)
Writing library : XviD 1.2.1 (UTC 2008-12-04)

Audio
ID : 1
Format : AC-3
Format/Info : Audio Coding 3
Codec ID : 2000
Duration : 1h 38mn
Bit rate mode : Constant
Bit rate : 384 Kbps
Channel(s) : 2 channels
Channel positions : L R
Sampling rate : 48.0 KHz
Stream size : 271 MiB (19%)
Alignment : Aligned on interleaves
Interleave, duration : 64 ms (1.60 video frames)
Interleave, preload duration : 192 ms

Source: PAL DVDR + AC3 STUDIO resynced audio (-70ms) , quality-pure as dvdrip

[ندعوك للتسجيل في المنتدى أو التعريف بنفسك لمعاينة هذا الرابط]

[ندعوك للتسجيل في المنتدى أو التعريف بنفسك لمعاينة هذا الرابط]

[ندعوك للتسجيل في المنتدى أو التعريف بنفسك لمعاينة هذا الرابط]

واليكم الروابط لتحميل الفليم


Downlaod Links:
[ندعوك للتسجيل في المنتدى أو التعريف بنفسك لمعاينة هذا الرابط]
[ندعوك للتسجيل في المنتدى أو التعريف بنفسك لمعاينة هذا الرابط]
[ندعوك للتسجيل في المنتدى أو التعريف بنفسك لمعاينة هذا الرابط]
[ندعوك للتسجيل في المنتدى أو التعريف بنفسك لمعاينة هذا الرابط]
[ندعوك للتسجيل في المنتدى أو التعريف بنفسك لمعاينة هذا الرابط]
[ندعوك للتسجيل في المنتدى أو التعريف بنفسك لمعاينة هذا الرابط]
[ندعوك للتسجيل في المنتدى أو التعريف بنفسك لمعاينة هذا الرابط]

لا تنسونا من دعائكم ولا ردودكم
الرجوع الى أعلى الصفحة اذهب الى الأسفل
معاينة صفحة البيانات الشخصي للعضو http://ahla-shpap.yoo7.com
 
بانفراد وتميز تام عندنا وبس فيلم الاكشن 2010 الرهيب The Expendables (2010) dvd
استعرض الموضوع السابق استعرض الموضوع التالي الرجوع الى أعلى الصفحة 
صفحة 1 من اصل 1
 مواضيع مماثلة
-
» نتيجة الثانوية العامة 2010 هنا
» اكواد كول تون فودافون 2010
» كتالوج اوريفليم يوليو 2010
» جديد صور تامر حسني ومي عز الدين 2010
» CAPES 2010

صلاحيات هذا المنتدى:لاتستطيع الرد على المواضيع في هذا المنتدى
منتديات احلى شباب :: قسم الافلام :: القسم الخاص باورع افلام الاكشن الاجنيه-
انتقل الى: